#TITLE:Azul;
#SUBTITLE:(remix);
#ARTIST:mezCIA;
#TITLETRANSLIT:;
#SUBTITLETRANSLIT:;
#ARTISTTRANSLIT:;
#CREDIT:;
#BANNER:azul_bn.png;
#BACKGROUND:azul_bg.png;
#LYRICSPATH:;
#CDTITLE:;
#MUSIC:azul_remix.mp3;
#OFFSET:0.840;
#SAMPLESTART:27.940;
#SAMPLELENGTH:15.000;
#SELECTABLE:YES;
#BPMS:0.000=97.510,36.000=195.020,40.000=195.020,248.000=97.510,280.000=195.020;
#STOPS:;
#BGCHANGES:;
// cache tags:
#FIRSTBEAT:2.000;
#LASTBEAT:345.000;
#SONGFILENAME:Songs/Music V.I.P ^_^/mezCIA - Azul/azulremix.sm;
#HASMUSIC:1;
#HASBANNER:1;
#MUSICLENGTH:129.857;
// end cache tags

//---------------dance-single - ----------------
#NOTES:
     dance-single:
     :
     Challenge:
     14:
     1.000,1.000,1.000,0.223,1.000,1206.000,312.000,29.000,0.000,87.000:
0000
0000
0000
0000
0000
0000
0000
0000
0000
0000
0000
0000
0000
0000
0000
0000
1100
0010
0001
0000
0001
0000
0010
0000
0001
0010
0100
0000
1000
0000
0001
0000
,
1000
0000
0100
0000
1000
0000
0000
0000
0001
0000
0000
0000
0010
0000
0000
0000
1000
0000
0100
0000
0010
0000
0000
0000
1000
0000
0000
0000
0100
0000
0000
0000
0011
0000
1000
0000
0100
0000
0000
0000
0010
0000
0000
0000
0001
0000
1000
0100
0010
0000
0000
0000
0001
0000
0000
0000
1000
0000
0000
0000
0100
0000
0000
0000
,
0100
1000
0010
0000
1000
0000
0100
0000
1000
0000
0011
0000
0110
0000
1100
0000
0110
0000
0011
0000
1000
0100
0001
0000
0100
0000
0010
0000
0001
0010
1000
0000
,
0100
0000
0010
0000
0100
0010
0100
0000
1000
0000
0001
0000
0100
0001
0100
0000
0011
0000
1000
0000
0100
1000
0100
0000
0010
0000
0001
1000
0001
0000
0100
0000
,
1100
0000
0001
0010
0001
0000
1000
0000
0110
0000
0000
0000
0011
0000
0010
0000
0011
0000
1000
0100
0010
0000
0011
0000
0010
0100
0010
0000
0100
0000
0010
0000
,
1000
0000
0100
0000
1000
0000
0000
0000
0010
0000
0000
0000
0001
0000
0000
0000
1000
0000
0100
0000
0001
0000
0000
0000
0010
0000
0000
0000
0100
0000
0000
0000
0011
0000
0100
0000
0010
0000
0000
0000
1000
0000
0000
0000
0000
0001
0010
0100
0000
0000
0000
0000
0100
0000
0000
0000
0010
0000
0000
0000
0001
0000
0000
0000
,
1000
0100
0010
0000
0010
0000
0010
0000
0001
0000
1100
0000
0110
0000
0011
0000
0110
0000
1100
0000
0001
0010
0001
0000
1000
0000
0100
0000
0001
0010
0100
0000
,
0110
0000
1000
0000
0001
0010
0100
0000
1000
0000
0100
0000
1000
0100
1000
0000
1100
0000
0010
0000
0001
0010
1000
0000
0100
0000
0010
0000
1000
0100
0001
0000
,
0110
0000
0000
0000
0001
0000
0100
0000
0001
0000
0000
0000
0100
0000
0000
0000
0101
0000
0000
0000
0000
0000
0000
0000
1010
0000
0000
0000
0000
0000
0000
0000
1011
0000
0000
0000
0000
0000
0000
0000
0000
0000
0000
0000
0000
0000
0000
0000
0100
0010
0000
0000
0000
0000
0000
0000
0000
0000
0000
0000
0000
0000
0000
0000
,
0000
0000
0000
0000
0000
0000
0000
0110
,
0111
1000
0100
0001
1110
0001
0010
0100
0010
1000
0011
1000
0111
1000
0001
0100
,
1000
0001
0110
1000
0011
0100
0010
1000
0100
0001
1110
0001
1010
0100
0010
0001
,
1100
0010
0001
1000
0111
1000
0100
0010
1000
0001
1100
0010
0101
1000
0100
1000
,
0110
1000
0110
1000
0101
0010
1100
0001
0010
1000
0110
0001
1110
0001
0010
0100
,
1010
0100
0010
0100
1011
0100
0010
1000
0100
0001
1100
0010
1101
0010
0100
1000
,
0010
1000
0111
1000
0111
1000
0100
0010
1000
0010
0101
1000
0110
1000
0100
0001
,
1110
0001
0100
1000
0011
0100
1000
0010
0100
0001
1010
0100
1010
0100
0010
1000
,
0111
1000
0111
1000
0100
0010
1101
0010
0001
0100
0011
0100
1011
0100
0010
1000
,
0111
1000
0100
0001
0110
1000
0100
0010
0001
1000
0110
0001
1110
0001
0010
0100
,
1000
0001
0110
1000
0011
0100
1000
0100
0010
0001
1110
0001
1110
0001
0010
0100
,
1010
0100
0001
1000
0110
1000
0100
0010
1000
0010
1100
0001
1110
0001
0010
0100
,
1010
0100
1010
0100
1001
0100
0011
1000
0100
0010
1001
0100
1010
0001
0010
0100
,
1011
0100
1000
0010
0101
1000
0100
0010
0001
1000
0101
0010
1001
0100
0010
0001
,
1000
0001
0110
1000
0111
1000
0110
1000
0100
0010
1101
0000
0110
1000
0100
1000
,
0111
1000
0100
0010
0101
1000
0100
0010
1000
0100
1001
0010
0101
1000
0100
0010
,
1000
0001
0110
1000
0011
1000
0110
1000
0100
0010
1101
0010
1100
0001
0010
0000
,
2222
0000
0000
0000
0000
0000
0000
3333
0000
0000
0001
0000
0010
0000
1000
0000
,
0100
0010
0001
0100
1000
0100
0010
0001
,
1000
0100
0010
1000
0100
1000
0100
0010
,
0001
0010
0001
0010
0100
0010
0100
0010
,
0100
0010
0100
0000
0110
0000
0010
0100
0001
0010
0100
0000
1100
0000
0010
0000
,
1000
0100
1000
0000
0110
0000
0010
0100
1000
0100
0001
0000
0110
0000
1000
0000
,
0001
0010
0100
0000
1100
0000
0001
0010
0100
1000
0100
0000
0110
0000
1000
0000
,
0010
0100
0010
0000
1011
0000
0100
0010
1000
0100
0010
0000
0111
0000
0010
0000
,
1100
0010
0001
0000
1010
0000
1010
0100
0001
0010
0100
0000
1001
0000
0100
0000
,
1010
0100
0011
0000
1100
0000
1010
0100
0001
1010
0100
0000
0111
0000
1000
0000
,
1010
0100
1010
0000
0100
0000
1000
0000
0011
0100
0011
0000
1010
0100
1010
0000
,
1110
0001
1110
0000
1001
0100
0010
0001
1000
0100
0010
0001
1000
0100
0010
0001
,
1110
0001
1010
0000
1110
0000
0011
0100
1010
0001
0010
0000
1110
0000
0100
0000
,
0110
0001
1100
0000
0011
0000
1010
0001
0010
0101
0010
0000
1110
0000
0010
0000
,
1011
0100
1011
0000
1001
0000
1001
0100
0011
1000
0100
0000
0111
0000
1000
0000
,
0101
0010
1101
0000
1011
0000
1100
0010
1100
0010
1100
0000
0111
0000
0100
0000
,
1011
0100
1010
0000
0010
0000
1010
0000
0101
0010
0101
0000
0010
0000
1100
0000
,
1100
0011
1100
0000
1100
0011
1100
0001
0010
0100
1000
0100
1000
0100
0010
0001
,
0010
1000
0100
0010
0100
1000
0110
0001
1100
0010
0001
0010
0100
0001
0010
0100
,
1000
0100
0010
1000
0010
1000
0100
1000
0100
1000
0100
1000
0100
1000
0100
1000
,
0100
0001
0010
0100
1000
0001
0010
0100
1000
0001
0010
0100
1000
0000
0100
0000
,
1000
0100
0010
0001
1000
0100
0010
0001
1000
0100
0010
0001
1000
0100
0010
0000
,
1100
0001
0010
0100
1000
0100
0010
0001
0010
0001
0010
0100
0010
0100
0001
0100
,
0001
0000
0100
0010
0001
0000
1000
0000
0100
0000
0010
0000
1000
0000
0100
0000
0001
0000
0010
0000
1000
0000
0100
0000
0001
0000
0100
0000
0010
0000
0100
0000
,
1000
0000
0010
0100
0010
0000
1000
0000
0001
0000
0010
0100
0010
0000
1000
0000
0100
0000
0001
0010
0100
0000
1000
0000
0000
0000
1000
0100
0010
0000
0001
0000
,
1100
0000
0001
0010
0100
0000
1000
0000
0100
0000
0001
0010
0100
0000
1000
0000
0100
0000
0001
0010
0100
0000
1000
0000
0101
0000
0010
0000
1000
0000
0100
0000
,
0010
1000
0100
0010
0001
1000
1100
0000
0000
0001
0011
0000
0000
1010
1101
0000
,
0000
0110
1110
0000
0000
0111
0111
0000
0000
0111
0111
0000
0000
1001
1100
0000
,
0101
1000
0100
0001
0110
1000
0100
1000
0010
0100
0011
1000
0110
0001
1000
0001
,
0110
1000
0110
0001
1100
0001
0110
0001
0100
0010
1101
0010
1101
0010
0001
0100
,
1001
0010
0100
1000
0111
1000
0010
1000
0100
0001
1010
0100
1001
0100
0001
1000
,
0101
0010
0100
0001
0110
1000
0010
0001
0100
1000
0001
0010
1000
0001
0110
1000
,
0100
0010
1000
0010
0101
0010
1100
0001
0010
0100
1001
0010
0101
1000
0010
0001
,
0110
1000
0101
0010
1100
0000
0110
0001
0100
0001
1010
0100
0011
0100
0011
1100
,
0011
1000
0100
0001
0110
1000
0011
0100
0010
0000
1101
0010
1101
0010
0001
1000
,
0110
0001
0010
1000
0101
0010
1000
0100
0010
0001
1100
0010
0001
0010
1000
0100
,
2000
0000
3002
2003
3002
0003
0200
0000
,
0311
0000
0000
2000
0000
0000
3020
0000
0230
0000
0000
0300
0000
0012
0110
1100
,
0113
0000
2011
0000
0000
0000
3000
0000
0001
0010
0001
0000
0011
0000
0000
0000
0010
0100
0010
0000
0110
0000
0000
0000
1000
0100
1000
0000
1100
0000
0000
0000
,
1100
0010
1000
0000
0111
0000
0000
0000
0101
0010
0101
0000
0101
0000
0000
0000
1110
0001
0110
0000
1110
0000
0000
0000
0111
1000
0111
0000
1110
0000
0111
0000
,
1110
2000
0000
0111
3001
0000
0000
0000
0201
0000
0300
0020
0001
0030
0200
0000
,
1322
0000
0000
0000
0133
0000
0002
0023
0230
0000
0000
0000
0301
2100
0110
0011
,
3110
0000
1100
0000
0000
0000
0000
0000
0101
0010
0001
0000
0011
0000
0000
0000
1100
0010
1000
0000
0110
0000
0000
0000
1101
0010
1100
0000
0011
0000
0000
0000
,
1010
0000
0100
0000
1010
0000
0000
0000
0011
0000
0000
0000
0000
0000
0000
0000
0101
0000
0010
0000
0101
0000
0000
0000
1100
0000
0000
0000
0000
0000
0000
0000
0011
0000
0000
0000
0110
0000
0000
0000
1100
0000
0000
0000
0110
0000
0000
0000
0001
0010
0100
1000
0001
0010
0100
1000
0001
0010
0100
1000
0001
0010
0100
1000
,
0001
0010
0100
0000
0001
0010
0100
0000
0001
0010
0100
0000
1000
0100
0010
0001
,
1000
0100
0010
0000
1000
0100
0010
0000
1000
0100
0010
0000
1000
0100
0010
0000
,
0010
0001
0010
0100
0010
0001
0010
0100
0010
0001
0010
0100
0010
0001
0010
0100
,
0010
0000
0100
0000
1000
0000
0010
0100
0001
0000
0100
0000
0010
0000
0001
0000
0010
0000
1000
0000
0100
0000
0010
0000
0001
0000
1000
0000
0010
0000
0100
0000
,
0010
0000
1000
0100
0010
0000
0001
0000
0010
0000
0100
0000
1000
0000
0100
0000
0010
0000
0001
0000
1000
0000
0010
0000
0001
0000
0010
0000
0100
0000
0010
0000
,
0001
0000
1000
0100
1000
0000
0010
0000
0001
0000
0010
0000
0100
0000
0010
0000
0001
0000
0100
0000
0010
0000
1000
0000
0100
0000
0010
0000
0100
0000
1000
0000
,
0100
0010
0001
0000
0000
1100
1110
0000
0000
0011
0111
0000
0000
0111
1111
0000
,
0000
1110
0111
0000
0000
1010
0111
0000
0000
1111
1111
0000
0000
1111
1111
0000
,
1100
0010
1000
0100
0011
0100
0010
0100
1000
0010
1100
0010
0101
1000
0001
0100
,
1010
0100
1001
0100
1001
0010
0101
1000
0100
1000
0110
0001
1010
0001
0100
0010
,
1100
0001
0010
0100
0011
1000
0010
0100
1000
0010
1100
0010
0101
0010
1100
0011
,
1100
0001
0010
0100
0011
1000
0110
1000
0001
0100
1010
0001
0100
0010
1001
0100
,
1010
0100
0010
1000
0011
0100
1000
0001
0100
0001
1010
0001
1010
0100
0001
0100
,
1010
0100
1010
0100
1001
0100
1010
0001
0100
0010
1001
0100
1010
0001
0100
1000
,
0200
0312
0003
2100
3000
0012
0003
2000
,
3100
0010
0001
0010
0100
1000
0100
0010
0100
0010
0001
0010
0001
0010
0001
0000
,
0000
1111
0000
0000
;

//---------------dance-single - ----------------
#NOTES:
     dance-single:
     :
     Hard:
     13:
     1.000,1.000,0.708,0.223,1.000,1204.000,92.000,29.000,0.000,15.000:
0000
0000
0000
0000
0000
0000
0000
0000
0000
0000
0000
0000
0000
0000
0000
0000
1000
0010
0100
0000
0001
0000
0010
0000
1000
0010
0100
0000
0001
0000
0100
0000
,
1000
0000
0100
0000
1000
0000
0000
0000
0001
0000
0000
0000
0010
0000
0000
0000
1000
0000
0001
0000
0100
0000
0000
0000
0010
0000
0000
0000
1000
0000
0000
0000
0001
0000
1000
0000
0010
0000
0000
0000
0100
0000
0000
0000
0001
0000
0100
0010
0100
0000
0000
0000
0001
0000
0000
0000
1000
0000
0000
0000
0010
0000
0000
0000
,
0100
0001
0100
0000
0010
0000
0100
0000
1000
0000
0011
0000
0110
0000
1100
0000
0110
0000
0011
0000
1000
0010
0100
0000
0001
0000
0010
0000
1000
0010
1000
0000
,
0100
0000
0010
0000
0100
0010
0100
0000
1000
0000
0001
0000
0100
0001
0100
0000
0011
0000
1000
0000
0100
1000
0100
0000
0010
0000
0001
1000
0001
0000
0100
0000
,
1100
0000
0001
0010
0001
0000
1000
0000
0110
0000
0000
0000
0011
0000
0010
0000
0011
0000
1000
0010
0100
0000
0011
0000
0010
0100
0010
0000
0100
0000
0010
0000
,
1000
0000
0100
0000
1000
0000
0000
0000
0010
0000
0000
0000
0001
0000
0000
0000
1000
0000
0010
0000
0100
0000
0000
0000
0001
0000
0000
0000
0100
0000
0000
0000
0001
0000
0100
0000
0010
0000
0000
0000
1000
0000
0000
0000
0000
0100
0010
0100
0000
0000
0000
0000
1000
0000
0000
0000
0010
0000
0000
0000
0001
0000
0000
0000
,
1000
0010
0100
0000
0010
0000
0010
0000
0001
0000
1100
0000
0110
0000
0011
0000
0110
0000
1100
0000
0001
0010
0001
0000
1000
0000
0100
0000
0001
0100
0010
0000
,
0110
0000
1000
0000
0001
0100
0010
0000
1000
0000
0100
0000
1000
0100
1000
0000
1100
0000
0010
0000
0001
1000
0010
0000
0100
0000
0010
0000
1000
0010
0100
0000
,
0110
0000
0000
0000
0001
0000
0100
0000
0001
0000
0000
0000
0100
0000
0000
0000
0101
0000
0000
0000
0000
0000
0000
0000
1010
0000
0000
0000
0000
0000
0000
0000
1011
0000
0000
0000
0000
0000
0000
0000
0000
0000
0000
0000
0000
0000
0000
0000
0100
0010
0000
0000
0000
0000
0000
0000
0000
0000
0000
0000
0000
0000
0000
0000
,
0000
0000
0000
0000
0000
0000
0000
0110
,
0100
0001
0100
0010
1000
0001
0100
0010
1000
0001
0100
0010
0100
0001
1000
0001
,
0100
0010
1000
0001
0100
0001
0100
0001
1000
0010
0100
0010
1000
0001
0100
0010
,
1000
0001
1000
0100
0010
0001
0100
0010
1000
0001
0100
0010
1000
0001
0100
0010
,
1000
0001
1000
0010
0100
0001
1000
0001
0010
0100
1000
0010
0100
0010
1000
0001
,
0100
0010
1000
0001
0100
0010
0100
0010
1000
0001
0100
0010
1000
0001
0100
0010
,
1000
0001
0100
0010
0100
0001
1000
0100
0010
0001
1000
0010
0100
0010
1000
0001
,
0100
0010
0100
0010
1000
0001
0100
0010
0100
0001
1000
0010
0100
0010
1000
0001
,
0100
0010
0100
0001
0100
0010
1000
0001
0100
0010
0100
0001
0100
0010
1000
0001
,
0100
0010
1000
0001
0100
0001
0100
0010
1000
0001
0100
0010
1000
0001
0100
0010
,
0100
0010
1000
0001
0100
0001
0100
0010
1000
0010
1000
0010
0100
0010
1000
0001
,
0100
0010
1000
0001
0100
0010
1000
0001
0100
0010
1000
0001
1000
0001
0100
0001
,
0100
0001
1000
0010
1000
0010
0100
0010
1000
0001
0100
0010
1000
0010
0100
0010
,
1000
0010
0100
0001
1000
0010
0100
0010
1000
0001
0100
0010
0100
0001
1000
0010
,
0100
0010
1000
0001
0100
0010
1000
0001
0100
0010
1000
0000
0010
0100
0001
1000
,
0000
0010
0100
0001
1000
0100
0010
0001
0000
1000
0010
0100
0010
1000
0001
0100
,
0010
1000
0001
0100
0001
0100
0001
1000
0010
0100
0010
1000
0001
0100
0010
0000
,
2222
0000
0000
0000
0000
0000
0000
3333
0000
0000
0001
0000
0010
0000
1000
0000
,
0100
0010
0001
0100
1000
0100
0010
0001
,
1000
0100
0010
1000
0100
1000
0100
0010
,
0001
0010
0001
0010
0100
0010
0100
0010
,
0100
0010
0100
0000
0110
0000
0010
0100
0001
0100
0010
0000
1001
0000
0010
0000
,
1000
0010
1000
0000
0110
0000
0010
0100
0001
0100
0001
0000
0110
0000
1000
0000
,
0001
1000
0010
0000
1010
0000
0001
1000
0010
0100
0001
0000
0110
0000
1000
0000
,
0010
0100
0010
0000
1001
0000
0100
0010
1000
0001
0100
0000
0101
0000
0010
0000
,
1000
0010
0100
0000
1010
0000
0010
0100
0001
1000
0010
0000
1001
0000
0100
0000
,
0010
0100
0010
0000
1001
0000
0010
0100
0001
1000
0010
0000
0101
0000
1000
0000
,
0010
0100
0010
0000
0100
0000
1000
0000
0010
0100
0010
0000
1000
0010
1000
0000
,
0100
0001
0100
0000
0001
0100
0010
1000
0001
0010
0100
1000
0001
0100
0010
0100
,
0010
1000
0001
0000
1010
0000
0010
0100
0010
1000
0010
0000
1010
0000
0100
0000
,
1000
0001
0100
0000
0010
0000
0001
0100
0010
1000
0010
0000
1001
0000
0010
0000
,
0001
0100
0001
0000
1010
0000
0001
0100
0001
1000
0010
0000
0101
0000
1000
0000
,
0100
0010
0100
0000
1001
0000
0100
0010
0100
0010
0100
0000
1001
0000
0100
0000
,
0001
0100
0010
0000
1000
0000
1010
0000
0100
0010
0100
0000
0001
0000
1000
0000
,
1000
0010
1000
0000
1000
0010
1000
0001
0100
0010
1000
0001
0100
0010
1000
0001
,
0100
0010
1000
0001
0100
0010
1000
0001
1000
0010
0100
0010
1000
0001
0100
0010
,
1000
0001
0100
0010
0100
0001
1000
0010
0100
0010
0100
0010
0100
0010
0100
0010
,
1000
0001
0010
0100
1000
0001
0010
0100
1000
0001
0010
0100
1000
0000
0001
0000
,
1000
0100
0010
0001
1000
0100
0010
0001
1000
0100
0010
0001
1000
0010
0100
0000
,
1000
0001
0100
0010
1000
0001
0100
0001
0100
0001
1000
0010
0100
0010
0100
0001
,
1000
0000
0010
0100
0010
0000
1000
0000
0010
0000
0100
0000
0001
0000
1000
0000
0010
0000
0100
0000
0001
0000
1000
0000
0010
0000
0100
0000
0010
0000
1000
0000
,
0001
0000
0100
0010
0100
0000
0001
0000
1000
0000
0010
0100
0010
0000
1000
0000
0001
0000
0100
0010
0100
0000
0001
0000
0000
0000
0010
1000
0010
0000
0100
0000
,
0001
0000
1000
0010
0100
0000
0010
0000
1000
0000
0001
0100
0001
0000
1000
0000
0001
0000
0100
0010
0100
0000
0001
0000
0100
0000
0010
0000
1000
0000
0001
0000
,
0100
0010
1000
0010
0001
0100
0010
0000
0000
0001
0100
0000
0000
1010
1010
0000
,
0000
0110
0110
0000
0000
0101
0101
0000
0000
0110
0110
0000
0000
1001
1001
0000
,
0010
1000
0010
0100
0001
1000
0010
1000
0010
0100
0010
1000
0010
0100
0001
1000
,
0010
1000
0010
0100
0010
1000
0010
0100
0010
1000
0001
0100
0001
1000
0001
0100
,
0010
0100
0001
1000
0001
1000
0010
1000
0010
0100
0010
1000
0001
0100
0001
1000
,
0010
0100
0010
1000
0010
0100
0001
1000
0010
0100
0010
1000
0001
0100
0010
1000
,
0010
0100
0001
1000
0010
0100
0010
1000
0001
0010
0100
1000
0001
0100
0010
1000
,
0010
0100
0010
1000
0001
0000
0100
0001
0100
0001
0100
0010
0100
0010
0100
0010
,
1000
0001
0100
0010
0100
0001
1000
0010
0100
0000
0001
0100
0001
1000
0010
0100
,
0010
1000
0010
1000
0010
1000
0001
0010
0100
1000
0001
0100
0010
0100
0001
0100
,
0020
0000
0032
2003
3002
0003
0200
0000
,
0311
0000
0000
2000
0000
0000
3020
0000
0230
0000
0000
0300
0000
0012
0110
1100
,
0113
0000
2011
0000
0000
0000
3000
0000
0001
0010
0001
0000
0011
0000
0000
0000
0010
0100
0010
0000
0110
0000
0000
0000
1000
0100
1000
0000
1100
0000
0000
0000
,
1000
0010
1000
0000
0110
0000
0000
0000
0100
0010
0100
0000
0101
0000
0000
0000
0100
0001
0100
0000
1010
0000
0000
0000
0010
1000
0010
0000
1001
0000
0110
0000
,
0101
2000
0000
0101
3010
0000
0000
0000
0201
0000
0300
0020
0001
0030
0200
0000
,
1322
0000
0000
0000
0133
0000
0002
0023
0230
0000
0000
0000
0301
2100
0110
0011
,
3110
0000
1100
0000
0000
0000
0000
0000
0001
0100
0001
0000
1001
0000
0000
0000
1000
0010
1000
0000
0110
0000
0000
0000
0100
0010
0100
0000
1001
0000
0000
0000
,
0010
0000
1000
0000
0010
0000
0000
0000
0101
0000
0000
0000
0000
0000
0000
0000
0100
0000
0010
0000
0100
0000
0000
0000
1001
0000
0000
0000
0000
0000
0000
0000
0010
0000
0000
0000
1000
0000
0000
0000
0001
0000
0000
0000
1000
0000
0000
0000
0001
0010
0100
1000
0001
0010
0100
1000
0001
0010
0100
1000
0001
0010
0100
1000
,
0001
1000
0001
0000
1000
0010
0100
0000
0001
1000
0010
0000
1000
0100
0010
0001
,
1000
0010
0100
0000
1000
0001
0100
0000
1000
0001
0100
0000
0001
0100
0010
0000
,
1000
0001
0100
0010
1000
0001
0100
0010
1000
0010
0100
0001
1000
0010
0100
0010
,
0100
0000
0001
0000
1000
0000
0010
0100
0010
0000
1000
0000
0010
0000
0100
0000
0010
0000
1000
0000
0001
0000
0100
0000
0010
0000
1000
0000
0010
0000
0100
0000
,
0001
0000
0100
0010
0100
0000
0001
0000
0100
0000
0001
0000
0100
0000
0001
0000
1000
0000
0010
0000
0100
0000
0010
0000
1000
0000
0001
0000
0100
0000
0010
0000
,
1000
0000
0010
0100
0010
0000
1000
0000
0010
0000
1000
0000
0001
0000
0100
0000
0001
0000
0100
0000
0010
0000
1000
0000
0001
0000
0100
0000
0001
0000
1000
0000
,
0010
0100
0001
0000
0000
1000
0010
0000
0000
0010
0100
0000
0000
0001
0100
0000
,
0000
0010
0110
0000
0000
1000
1010
0000
0000
0110
0110
0000
0000
1001
1001
0000
,
1000
0010
1000
0010
1000
0001
0100
0010
0100
0010
1000
0001
0100
0010
1000
0001
,
0100
0010
1000
0010
0100
0001
1000
0010
0100
0001
0100
0010
1000
0001
0100
0010
,
1000
0001
0100
0010
1000
0010
0100
0010
1000
0010
1000
0001
0100
0010
1000
0001
,
1000
0001
0100
0010
1000
0010
0100
0001
1000
0010
0100
0001
0100
0010
1000
0010
,
0100
0001
0100
0001
1000
0010
1000
0001
0100
0001
1000
0001
0100
0010
1000
0010
,
1000
0010
1000
0010
1000
0001
0100
0010
1000
0010
1000
0001
0100
0010
0100
0001
,
0200
0312
0003
2100
3000
0012
0003
2000
,
3100
0010
1000
0010
0100
0001
1000
0001
0100
0010
1000
0010
1000
0010
1000
0000
,
0000
1111
0000
0000
;
